Skip to main content

The Schwag Live at The Picador on 2007-12-06


Topics Live concert


01. Deep Elum Blues
02. Me & My Uncle
03. Friend Of The Devil >
04. The Golden Road (To Unlimited Devotion)
05. Uncle John's Band >
06. Shakedown Street >
07. The Wheel >
08. Shakedown Street (reprise) >
09. Never Trust A Woman
10. Cumberland Blues >
11. Maggie's Farm >
12. Cumberland Blues (reprise)
13. Help On The Way >
14. Slipknot! >
15. Frankenstein >
16. Franklin's Tower
17. Big River
18. Tangled Up In Blue
19. Cold Rain & Snow
20. The Music Never Stopped
21. Hell In A Bucket >
22. All Along The Watchtower >
23. Throwing Stones >
24. Folsom Prison Blues >
25. The Music Never Stopped (reprise)
26. Encore: Casey Jones >
27. Encore: Folsom Prison Blues (reprise)


Collection TheSchwag
Band/Artist The Schwag
Venue The Picador
Location Iowa City, IA

Source JW MOD AKG 460b/ck63 > Mogami XLR > Core Sound Mic2496 (16bit/44.1kHz) > Core Sound PDAudio CF > Ipaq 3835 > Live 2496 > WAV > Toshiba 5gb PCMCIA
Lineage Ipaq 3835 > USB > PC > WAV > CDWav (tracks) > Soundforge 9.0 (fades) > FLAC Frontend > FLAC16
Taped by Brad Shears
Transferred by Brad Shears

Notes

Source - Digital Audience:
JW MOD AKG 460b/ck63 > Mogami XLR > Core Sound Mic2496 (16bit/44.1kHz) > Core Sound PDAudio CF > Ipaq 3835 > Live 2496 > WAV > Toshiba 5gb PCMCIA

Transfer:
Ipaq 3835 > USB > PC > WAV > CDWav (tracks) > Soundforge 9.0 (fades) > FLAC Frontend > FLAC16

Location:
FOB - ROC - DIN 90∞- Stand @ ~7'- ~25' Back

Taped & Transfered by Brad Shears (db.etree.org/gratefulbrad)

Disc One / Set 1
01. Deep Elum Blues
02. Me & My Uncle
03. Friend Of The Devil >
04. The Golden Road (To Unlimited Devotion)
05. Uncle John's Band >
06. Shakedown Street >
07. The Wheel >
08. Shakedown Street (reprise) >
09. Never Trust A Woman
10. Cumberland Blues >
11. Maggie's Farm >
12. Cumberland Blues (reprise)

Disc Two / Set 1 cont. / Set 2
01. Help On The Way >
02. Slipknot! >
03. Frankenstein >
04. Franklin's Tower
- Set 2 -
05. Big River
06. Tangled Up In Blue
07. Cold Rain & Snow
08. The Music Never Stopped
09. Hell In A Bucket >
10. All Along The Watchtower >

Disc Three / Set 2 cont.
06. Throwing Stones >
07. Folsom Prison Blues >
08. The Music Never Stopped (reprise)
09. Encore: Casey Jones >
10. Encore: Folsom Prison Blues (reprise)



*** Please Do Not Trade/Distribute In Mp3 ***


shntool results:
length expanded size cdr WAVE problems filename
5:57.00 62975628 -b- -- ---xx schwag2007-12-06d1t01.flac
4:29.44 47555132 --- -- ---xx schwag2007-12-06d1t02.flac
4:57.66 52546076 --- -- ---xx schwag2007-12-06d1t03.flac
3:07.64 33137372 --- -- ---xx schwag2007-12-06d1t04.flac
10:03.08 106388060 --- -- ---xx schwag2007-12-06d1t05.flac
7:45.39 82117772 --- -- ---xx schwag2007-12-06d1t06.flac
4:35.23 48564140 --- -- ---xx schwag2007-12-06d1t07.flac
4:19.62 45833468 --- -- ---xx schwag2007-12-06d1t08.flac
7:49.39 82823372 --- -- ---xx schwag2007-12-06d1t09.flac
4:11.71 44443436 --- -- ---xx schwag2007-12-06d1t10.flac
6:18.03 66686300 --- -- ---xx schwag2007-12-06d1t11.flac
1:05.57 11600108 --- -- ---xx schwag2007-12-06d1t12.flac
2:57.71 31389836 --- -- ---xx schwag2007-12-06d2t01.flac
5:43.05 60517004 --- -- ---xx schwag2007-12-06d2t02.flac
4:14.14 44838572 --- -- ---xx schwag2007-12-06d2t03.flac
7:31.58 79691820 -b- -- ---xx schwag2007-12-06d2t04.flac
4:50.31 51228540 -b- -- ---xx schwag2007-12-06d2t05.flac
10:51.17 114876428 --- -- ---xx schwag2007-12-06d2t06.flac
8:02.43 85125980 --- -- ---xx schwag2007-12-06d2t07.flac
8:39.58 91688060 --- -- ---xx schwag2007-12-06d2t08.flac
8:29.30 89858204 --- -- ---xx schwag2007-12-06d2t09.flac
7:58.13 84349820 --- -- ---xx schwag2007-12-06d2t10.flac
8:16.29 87562652 --- -- ---xx schwag2007-12-06d3t01.flac
4:17.13 45365420 --- -- ---xx schwag2007-12-06d3t02.flac
6:49.68 72307580 --- -- ---xx schwag2007-12-06d3t03.flac
4:08.28 43813100 --- -- ---xx schwag2007-12-06d3t04.flac
2:13.32 23535660 -b- -- ---xx schwag2007-12-06d3t05.flac
159:45.10 1690819540 B (totals for 27 files, 0.5283 overall compression ratio)

Reviews

There are no reviews yet. Be the first one to write a review.
DOWNLOAD OPTIONS
In Collection
The Schwag
In Collection
Live Music Archive
Uploaded by
morst
on 12/15/2007
Views
1,709
Favorites
4
PEOPLE ALSO FOUND
The Schwag
by The Schwag
5,628
2
2
( 2 reviews )
Source: Realistic PZM's > Marantz PMD430 > MCAS
The Schwag
by The Schwag
27,443
2
1
( 1 reviews )
Source: AUD MCAS
The Schwag
by The Schwag
13,560
2
1
( 1 reviews )
Source: MCAS > FLAC
The Schwag
by The Schwag
532
2
0
Source: Realistic 33-1033 omni mic (mono) > Marantz PMD430 > MCAS
The Schwag
by The Schwag
5,439
3
0
Source: SM57's > Marantz PMD430 > MCAS
The Schwag
by The Schwag
1,709
4
0
Source: JW MOD AKG 460b/ck63 > Mogami XLR > Core Sound Mic2496 (16bit/44.1kHz) > Core Sound PDAudio CF > Ipaq 3835 > Live 2496 > WAV > Toshiba 5gb PCMCIA
The Schwag
by The Schwag
5,825
5
2
( 2 reviews )
Source: SBD > MCAS
Reason For Leaving
by Reason For Leaving
2,242
1
0
Source: DAUD
Reason For Leaving
by Reason For Leaving
1,042
1
0
Source: Sony MTL-F96 mic (mono) > Sony PCM-M1 > DAT @ 48KHz
The Sound of Urchin
by The Sound of Urchin
361
1
0
Source: SBD + Audience Matrix